Russian & Soviet Composers (Misc)

Why can't anyone get it right?
Post Reply
Aggelos
Pianophiliac
Posts: 234
Joined: Mon Sep 28, 2009 1:42 pm
Instruments played, if any: piano
Music Scores: Yes
Location: Greece

Re: Russian & Soviet Composers (Misc)

Post by Aggelos »

Georgy Sviridov - Musical illustrations to A. Pushkin's Blizzard (a.k.a. Snowstorm) - TV Broadcast
Tchaikovsky Large Symphony Orchestra, Conductor Vladimir Fedoseyev


Image
Image



Press on "Create Download Link" and then on "Click here to Download".
http://www.peejeshare.com/files/3625737 ... s.mpg.html



Format : MPEG Video
Format version : Version 2
Format profile : Main@Main
Format settings, BVOP : Yes
Format settings, Matrix : Custom
Duration : 31mn 24s
Bit rate mode : Variable
Bit rate : 2 764 Kbps
Maximum bit rate : 15.0 Mbps
Width : 704 pixels
Height : 576 pixels
Display aspect ratio : 4:3
Frame rate : 25.000 fps
Standard : PAL
Color space : YUV
Chroma subsampling : 4:2:0
Bit depth : 8 bits
Compression mode : Lossy
Bits/(Pixel*Frame) : 0.273
Stream size : 621 MiB (92%)

Format : MPEG Audio
Format version : Version 1
Format profile : Layer 2
Duration : 31mn 24s
Bit rate mode : Constant
Bit rate : 192 Kbps
Channel(s) : 2 channels
Sampling rate : 48.0 KHz
Compression mode : Lossy
Stream size : 43.1 MiB (6%)
Emil Borisovich Sernov
Pianophiliac
Posts: 314
Joined: Thu Feb 09, 2012 10:28 am
Instruments played, if any: Piano
Music Scores: Yes

Re: Russian & Soviet Composers (Misc)

Post by Emil Borisovich Sernov »

Are these recordings can be found?

[Sonatas n.2, 5, 6, 10, 11, 12/4 Preludes Op.8 / Suite n.2
by Victor Bunin, Vladimir Bunin, Ignatieva Zinaida, Polina Evgenia, Anait Nerssessian, Tatiana Schebanova
Melodia (LP) or Radio}

I think two sonatas were posted on here.
and i believe that this recording is from that LP; http://www.youtube.com/watch?v=ShCd1QIt ... re=related
Next Recording is;
Feinberg: Rhapsody on Kardinaro-Balkarian Themes (Dmitri Blagoi)

please help me to get the information!
Aggelos
Pianophiliac
Posts: 234
Joined: Mon Sep 28, 2009 1:42 pm
Instruments played, if any: piano
Music Scores: Yes
Location: Greece

Re: Russian & Soviet Composers (Misc)

Post by Aggelos »

Kleiser / Grigory Ginzburg : Prelude and Allegro in the Style of Pugnani
Performed by Elena Tarasova.
Kudos to Elena! :roll: :)

http://www.elenatarasova.ru/index.php
You do not have the required permissions to view the files attached to this post.
feinberg

Re: Russian & Soviet Composers (Misc)

Post by feinberg »

Thanks, Dear Aggelos!
User avatar
Scriabinoff
Pianophiliac
Posts: 497
Joined: Tue Jul 24, 2012 8:30 pm
Instruments played, if any: Piano
Music Scores: Yes
Location: USA
Contact:

Re: Russian & Soviet Composers (Misc)

Post by Scriabinoff »

was browsing this and there are some nice pieces that were uploaded to the now defunct megaupload. any chance we can get some mediafire mirrors or direct attachments for these (some hits I found via searching only came up with those mega links). just a general request, anyone that can contribute to making old links re-available (make up word for the day!), would be awesome. super awesome.
Aggelos
Pianophiliac
Posts: 234
Joined: Mon Sep 28, 2009 1:42 pm
Instruments played, if any: piano
Music Scores: Yes
Location: Greece

Re: Russian & Soviet Composers (Misc)

Post by Aggelos »

Emil Borisovich Sernov
Pianophiliac
Posts: 314
Joined: Thu Feb 09, 2012 10:28 am
Instruments played, if any: Piano
Music Scores: Yes

Re: Russian & Soviet Composers (Misc)

Post by Emil Borisovich Sernov »

Postdeleted
Last edited by Emil Borisovich Sernov on Sun Oct 15, 2017 5:52 am, edited 1 time in total.
Emil Borisovich Sernov
Pianophiliac
Posts: 314
Joined: Thu Feb 09, 2012 10:28 am
Instruments played, if any: Piano
Music Scores: Yes

Re: Russian & Soviet Composers (Misc)

Post by Emil Borisovich Sernov »

Post deleted
Last edited by Emil Borisovich Sernov on Sun Oct 15, 2017 5:51 am, edited 1 time in total.
Emil Borisovich Sernov
Pianophiliac
Posts: 314
Joined: Thu Feb 09, 2012 10:28 am
Instruments played, if any: Piano
Music Scores: Yes

Re: Russian & Soviet Composers (Misc)

Post by Emil Borisovich Sernov »

Hello dear members.
Does anybody have this LP?
'S. Feinberg, N. Rakov, N. Peiko, G. Galyinin - Dmitry Blagoy'
vvedenskij
Member
Posts: 17
Joined: Mon Oct 05, 2009 11:40 pm
Instruments played, if any: piano
Music Scores: No

Re: Russian & Soviet Composers (Misc)

Post by vvedenskij »

... here it is, Samuil Feinberg's Rhapsody op.45 as recorded by Dmitry Blagoi:

http://www.mediafire.com/listen/74zc1gy ... apsody.m4a

vv.
Post Reply